ncis daredevil Star Trek Discovery mr robot en español dtone High Castle s03e07 0 Mile 22 2160p It 1080p 2018 Survivor the flash s05e03 ettv the good doctor supergirl the walking dead Flash great british bake off s09e09 DTOne better call saul etmovies 9-1-1 s02e04 1080p YIFY Vikings Manifest doctor who it 2017 shameless legends of tomorrow the walking dead s09e03 Supernatural this is us wwe incredibles 2 flash s05e03 NFL family guy hindi Ufc evo star trek discovery español big bang theory español venom fgt ethd Ethd Arrow s07e02 greys anatomy mayans season complete the big bang theory the flash american horror story Scorpion empire porn windows 10 Game Of Thrones lethal weapon lucifer south park ddr big bang theory Evo etrg arrow 2018 ita blindspot walking dead ita 
Warning! Do not Download Without a VPN!
Your IP Address is .   Location is
Download and surf securely, stream unlimited and protect your personal data!
We strongly recommend using SpyOFF VPN!
Become Anonymous with SpyOFF
ETTV Recommended TV Shows
Mayans.M.C.S01E08.WEBRip.x264-TBS[ettv] torrent
Criminal.Minds.S14E04.HDTV.x264-KILLERS[ettv] torrent
Chicago.PD.S06E05.HDTV.x264-KILLERS[ettv] torrent
Riverdale.US.S03E03.HDTV.x264-SVA[ettv] torrent

ETTV Recommended Xvid
Mile.22.2018.HDRip.XviD.AC3-EVO[EtMovies] torrent
The.Scorpion.King.Book.of.Souls.2018.HDRip.XViD-ETRG torrent
BlacKkKlansman.2018.HDRip.XViD.AC3-ETRG torrent
A.Happening.of.Monumental.Proportions.2018.HDRip.XViD-ETRG torrent

ETTV Recommended HD
Incredibles.2.2018.1080p.WEB-DL.DD5.1.H264-CMRG[EtHD] torrent
BlacKkKlansman.2018.1080p.WEB-DL.DD5.1.H264-CMRG[EtHD] torrent
Scorpion.King.The.Book.of.Souls.2018.1080p.WEB-DL.H264.AC3-EVO[EtHD] torrent
Mile.22.2018.1080p.HDRip.X264.AC3-EVO[EtHD] torrent

ETTV Recommended UHD
Constantine.City.of.Demons.2018.2160p.BluRay.x265.10bit.HDR.DTS-HD.MA.5.1-SWTYBLZ[EtHD] torrent
Your.Name.2016.2160p.UHD.BluRay.x265-VALiS[EtHD] torrent
Peter.Rabbit.2018.PLDUB.DUAL.2160p.UHD.BluRay.x265-FLAME[EtHD] torrent
Death.Wish.2018 BluRay 2160p DTS MA5 1 x265 10bit-CHD[EtHD] torrent

ETTV Recommended Cam
Bad Times at the El Royale 2018.HDCAM.XViD.AC3-ETRG torrent
Goosebumps 2 Haunted Halloween 2018 HDTS.x264.AC3-ETRG torrent
Halloween 2018.HDCAM.XViD.AC3-ETRG torrent
Night School 2018 HDTS XViD AC3-ETRG torrent

ETTV Recommended Foreign
The Avengers Trilogy (2012-2018) 1080p BluRay x264 Dual Audio [Hindi - English] DD5.1 - ESUB ~ Ranvijay torrent
Naa.Bangaaru.Talli.2013.1080p.NF.WebDL.AVC.DDP.5.1-DTOne torrent
Insidious The Last Key (2017) 1080p BluRay x264 Dual Audio [Hindi DD5.1 640 Kbps - English DD5.1] - MSUBS ~ Ranvijay torrent
Chotay Shah 2016 Hindi Untouched WebDL 1080p x264 - mkvCinemas torrent

Social


Download Torrent "Blue Bloods (2010) Season 8 S08 (1080p AMZN WEB-DL x265 HEVC 10bit EAC3 6.0..."

IMDB Details
Description:

Revolves around a family of New York cops.

Genre:

Crime, Drama

Download Torrent (Magnet)
Download Torrent (File)
Seeds: 20
Leechers: 20
Completed: 860 
Last Checked: 11-06-2018 12:33:57


Loading...
Details
Title:Blue Bloods (2010) Season 8 S08 (1080p AMZN WEB-DL x265 HEVC 10bit EAC3 6.0...
Description:


Encode Screenshots (Click for full quality)







Media Information
General
Format                                   : Matroska
Format version                           : Version 4 / Version 2
File size                                : 812 MiB
Duration                                 : 42 min 2 s
Overall bit rate                         : 2 699 kb/s
Encoded date                             : UTC 2018-06-04 01:23:53
Writing application                      : mkvmerge v23.0.0 ('The Bride Said No') 64-bit
Writing library                          : libebml v1.3.6 + libmatroska v1.4.9

Video
ID                                       : 1
Format                                   : HEVC
Format/Info                              : High Efficiency Video Coding
Format profile                           : Main [email protected]@Main
Codec ID                                 : V_MPEGH/ISO/HEVC
Duration                                 : 42 min 2 s
Bit rate                                 : 2 057 kb/s
Width                                    : 1 920 pixels
Height                                   : 1 080 pixels
Display aspect ratio                     : 16:9
Frame rate mode                          : Constant
Frame rate                               : 23.976 (24000/1001) FPS
Color space                              : YUV
Chroma subsampling                       : 4:2:0
Bit depth                                : 10 bits
Bits/(Pixel*Frame)                       : 0.041
Stream size                              : 618 MiB (76%)
Writing library                          : x265 2.6+37-1949157705ce:[Windows][MSVC 1912][64 bit] 10bit
Encoding settings                        : cpuid=1173503 / frame-threads=3 / numa-pools=8 / wpp / no-pmode / no-pme / no-psnr / no-ssim / log-level=2 / input-csp=1 / input-res=1920x1080 / interlace=0 / total-frames=60480 / level-idc=0 / high-tier=1 / uhd-bd=0 / ref=5 / no-allow-non-conformance / no-repeat-headers / annexb / no-aud / no-hrd / info / hash=0 / no-temporal-layers / open-gop / min-keyint=23 / keyint=250 / gop-lookahead=0 / bframes=8 / b-adapt=2 / b-pyramid / bframe-bias=0 / rc-lookahead=50 / lookahead-slices=0 / scenecut=40 / radl=0 / no-intra-refresh / ctu=64 / min-cu-size=8 / no-rect / no-amp / max-tu-size=32 / tu-inter-depth=1 / tu-intra-depth=1 / limit-tu=0 / rdoq-level=0 / dynamic-rd=0.00 / no-ssim-rd / signhide / no-tskip / nr-intra=0 / nr-inter=0 / no-constrained-intra / no-strong-intra-smoothing / max-merge=2 / limit-refs=3 / no-limit-modes / me=3 / subme=5 / merange=57 / temporal-mvp / weightp / weightb / no-analyze-src-pics / deblock=-1:-1 / no-sao / no-sao-non-deblock / rd=3 / no-early-skip / no-rskip / no-fast-intra / no-tskip-fast / no-cu-lossless / no-b-intra / no-splitrd-skip / rdpenalty=0 / psy-rd=1.50 / psy-rdoq=0.00 / no-rd-refine / no-lossless / cbqpoffs=0 / crqpoffs=0 / rc=crf / crf=21.0 / qcomp=0.60 / qpstep=4 / stats-write=0 / stats-read=0 / ipratio=1.40 / pbratio=1.30 / aq-mode=3 / aq-strength=0.80 / cutree / zone-count=0 / no-strict-cbr / qg-size=32 / no-rc-grain / qpmax=69 / qpmin=0 / no-const-vbv / sar=0 / overscan=0 / videoformat=5 / range=0 / colorprim=2 / transfer=2 / colormatrix=2 / chromaloc=0 / display-window=0 / max-cll=0,0 / min-luma=0 / max-luma=1023 / log2-max-poc-lsb=8 / vui-timing-info / vui-hrd-info / slices=1 / no-opt-qp-pps / no-opt-ref-list-length-pps / no-multi-pass-opt-rps / scenecut-bias=0.05 / no-opt-cu-delta-qp / no-aq-motion / no-hdr / no-hdr-opt / no-dhdr10-opt / analysis-reuse-level=5 / scale-factor=0 / refine-intra=0 / refine-inter=0 / refine-mv=0 / no-limit-sao / ctu-info=0 / no-lowpass-dct / refine-mv-type=0 / copy-pic=1
Language                                 : English
Default                                  : Yes
Forced                                   : No

Audio
ID                                       : 2
Format                                   : E-AC-3
Format/Info                              : Enhanced Audio Coding 3
Format settings, Endianness              : Big
Codec ID                                 : A_EAC3
Duration                                 : 42 min 2 s
Bit rate mode                            : Constant
Bit rate                                 : 640 kb/s
Channel(s)                               : 6 channels
Channel positions                        : Front: L C R, Side: L R, LFE
Sampling rate                            : 48.0 kHz
Frame rate                               : 187.500 FPS (256 spf)
Compression mode                         : Lossy
Stream size                              : 192 MiB (24%)
Language                                 : English
Default                                  : Yes
Forced                                   : No

Subtitle
ID                                       : 3
Format                                   : UTF-8
Codec ID                                 : S_TEXT/UTF8
Codec ID/Info                            : UTF-8 Plain Text
Duration                                 : 41 min 23 s
Bit rate                                 : 79 b/s
Count of elements                        : 821
Stream size                              : 24.0 KiB (0%)
Language                                 : English
Default                                  : No
Forced                                   : No

Source Information
Release : Blue Bloods S08 1080p AMZN WEB-DL DD+ 5.1 H.264-NTb



Note from QxR:
Whilst we are happy for our releases to be re-posted on a platform we aren't on, please do so in an 'as-is' format. We ask that you do not create a new torrent, include all descriptions you see above including the QxR logo, tags, notes and screenshots. If you'd like to become a permanent poster on a website we don't post to, feel free to get in contact with a QxR member.
Category:TV > HEVC/x265
Lang:English  English
Total Size:19.11 GB
Info Hash:9cd407ff41fd9c6d323fa2f0367eff6f91adf85e
Added By:QxR
Date Added:11-06-2018 12:33:53

Files

File List: 
 File Size
Blue Bloods (2010) - S08E01 - Cutting Losses (1080p AMZN WEB-DL x265 FreetheFish).mkv812 MB
Blue Bloods (2010) - S08E02 - Ghosts of the Past (1080p AMZN WEB-DL x265 FreetheFish).mkv857 MB
Blue Bloods (2010) - S08E03 - The Enemy of My Enemy (1080p AMZN WEB-DL x265 FreetheFish).mkv837 MB
Blue Bloods (2010) - S08E04 - Out of the Blue (1080p AMZN WEB-DL x265 FreetheFish).mkv890 MB
Blue Bloods (2010) - S08E05 - The Forgotten (1080p AMZN WEB-DL x265 FreetheFish).mkv875 MB
Blue Bloods (2010) - S08E06 - Brushed Off (1080p AMZN WEB-DL x265 FreetheFish).mkv897 MB
Blue Bloods (2010) - S08E07 - Common Ground (1080p AMZN WEB-DL x265 FreetheFish).mkv917 MB
Blue Bloods (2010) - S08E08 - Pick Your Poison (1080p AMZN WEB-DL x265 FreetheFish).mkv872 MB
Blue Bloods (2010) - S08E09 - Pain Killers (1080p AMZN WEB-DL x265 FreetheFish).mkv819 MB
Blue Bloods (2010) - S08E10 - Heavy Is the Head (1080p AMZN WEB-DL x265 FreetheFish).mkv867 MB
Blue Bloods (2010) - S08E11 - Second Chances (1080p AMZN WEB-DL x265 FreetheFish).mkv906 MB
Blue Bloods (2010) - S08E12 - The Brave (1080p AMZN WEB-DL x265 FreetheFish).mkv941 MB
Blue Bloods (2010) - S08E13 - Erasing History (1080p AMZN WEB-DL x265 FreetheFish).mkv893 MB
Blue Bloods (2010) - S08E14 - School of Hard Knocks (1080p AMZN WEB-DL x265 FreetheFish).mkv842 MB
Blue Bloods (2010) - S08E15 - Legacy (1080p AMZN WEB-DL x265 FreetheFish).mkv808 MB
Blue Bloods (2010) - S08E16 - Tale of Two Cities (1080p AMZN WEB-DL x265 FreetheFish).mkv812 MB
Blue Bloods (2010) - S08E17 - Close Calls (1080p AMZN WEB-DL x265 FreetheFish).mkv920 MB
Blue Bloods (2010) - S08E18 - Friendship, Love and Loyalty (1080p AMZN WEB-DL x265 FreetheFish).mkv877 MB
Blue Bloods (2010) - S08E19 - Risk Management (1080p AMZN WEB-DL x265 FreetheFish).mkv881 MB
Blue Bloods (2010) - S08E20 - Your Six (1080p AMZN WEB-DL x265 FreetheFish).mkv981 MB
Blue Bloods (2010) - S08E21 - The Devil You Know (1080p AMZN WEB-DL x265 FreetheFish).mkv1.00 GB
Blue Bloods (2010) - S08E22 - My Aim is True (1080p AMZN WEB-DL x265 FreetheFish).mkv1.01 GB



Loading...
Comments

There are currently no comments. Be the first one to write something !

Disclaimer: None of the files shown here are actually hosted or transmitted by this server. The links are provided solely by this site's users. The site moderation is also a service provided by the site's users. The administrator of this site (ettv.tv) cannot be held responsible for what its users post, or any other actions of its users. You may not use this site to distribute or download any material when you do not have the legal rights to do so. It is your own responsibility to adhere to these terms.

Sitemap